Клип Monster DJ's feat. Jenia Lubich - Без тебя - Клипы - СКАЧАТЬ КЛИПЫ БЕСПЛАТНО - СКАЧАЙ МУЗЫКУ

Главная

Регистрация

Вход
Воскресенье, 04.12.2016, 21:22
Приветствую Вас Гость | RSS
.
Главная » Статьи » Клипы

Клип Monster DJ's feat. Jenia Lubich - Без тебя
Здесь вы можете скачать бесплатно Клип Monster DJ's feat. Jenia Lubich - Без тебя


Скачать бесплатно клип Monster DJ's feat. Jenia Lubich - Без тебя

Текст песни Monster DJ's feat. Jenia Lubich - Без тебя

Мне приснился этот мир
Чёрно-белым полотном
Без тебя он был чужим
Мне пустым казался он.

Пусть летит ночь за днём
Пусть бегут быстрей минуты
Мы друг друга найдём
А потом будет утро.
Текст песни Monster DJ's feat. Jenia Lubich - Без тебя
найден на сайте mmmpp333.do.am

Ты меня не буди
Угадай мои мысли
Всё ещё впередииии
Я уже очень близкоооо

Я увидела тогда
Что искала между строчек
Ты мне нужен как вода
Я не буду ставить точки.

Пусть летит ночь за днём
Пусть бегут быстрей минуты
Мы друг друга найдём
А потом будет утроооо

Format/Info : Audio Video Interleave
File size : 6.83 MiB
Duration : 2mn 3s
Overall bit rate : 465 Kbps
Movie name : 776.flv
Director : created.with.5U

Video #0
ID : 0
Format : MPEG-4 Visual
Format profile : 5imple(g>Ll
Format settings, EVOP : No
Format settings, QPel : No
Format settings, GMC : No warppomts
Format settings, Matrix : Default (H.263)
Codec ID : DX5Q
Codec ID/Hint : DivX 5
Duration : Imn Os
Bit rate : 861 Kbps
Width : 384 pixels
Height : 288 pixels
Display aspect ratio : 4:3
Frame rate : 25.000 fps
Resolution : 24 bits
Colonmetry : 4:2:0
Scan type : Progressive
Bits/(Pixel*Frame) : 0.311
Stream size : 6.26MiB(92%)
Writing library

Audio #1
ID : 1
Format : MPEG Audio
Format version : Version 2
Format profile : Layer 3
Codec ID : 55
Codec ID/Hint : MP3
Duration : 2mn 3s
Bit rate mode : Constant
Bit rate : 64.0 Kbps
Channel(s) : 2 channels
Sampling rate : 22.05 KHz
Resolution : 16 bits
Stream size : 481 KiB (7%)
Alignment : Aligned on interleaves
Interleave, duration : 26 ms (0.65 video frame)
Writing library : LAME3.97

Категория: Клипы | Добавил: MMMPP333 (18.04.2010)
Просмотров: 653 | Теги: Клип Monster DJ's feat. Jenia Lubic, Скачать бесплатно Клип Monster DJ's, Скачать Клип Monster DJ's feat. Jen
.
Copyright MyCorp © 2016
Хостинг от uCoz