Клип ВАЛЕРИЯ - КАПЕЛЬКОЮ неба - Клипы - СКАЧАТЬ КЛИПЫ БЕСПЛАТНО - СКАЧАЙ МУЗЫКУ

Главная

Регистрация

Вход
Суббота, 03.12.2016, 03:19
Приветствую Вас Гость | RSS
.
Главная » Статьи » Клипы

Клип ВАЛЕРИЯ - КАПЕЛЬКОЮ неба
Здесь вы сможете скачать бесплатно Клип ВАЛЕРИЯ - КАПЕЛЬКОЮ неба


Скачать бесплатно клип Валерия Капелькою

Информация о видео:

Duration : 3mn 50s
Overall bit rate : 570 Kbps
Director : created.8.bid.33
Writing application :
Video #0
ID : 0
Format : MPEG-4 Visual
Format profile : 5imple(g>Ll
Format settings, EVOP : No
Format settings, QPel : No
Format settings, GMC : No warppomts
Format settings, Matrix : Default (H.263)
Codec ID : DX5Q
Codec ID/Hint : DivX 5
Duration :3mn 50s
Bit rate : 1 032 Kbps
Width : 384 pixels
Height : 288 pixels
Display aspect ratio : 4:3
Frame rate : 25.000 fps
Resolution : 24 bits
Colonmetry : 4:2:0
Scan type : Progressive
Bits/(Pixel*Frame) : 0.373
Stream size : 14.9MiB(90%)
Writing library
Audio #1
ID : 1
Format : MPEG Audio
Format version : Version 2
Format profile : Layer 3
Codec ID : 55
Codec ID/Hint : MP3
Duration : 3mn 50s
Bit rate mode : Constant
Bit rate : 96.0 Kbps
Channel(s) : 2 channels
Sampling rate : 22.05 KHz
Resolution : 16 bits
Stream size : 1.39MiB(8%)
Alignment : Aligned on interleaves
Interleave, duration : 26 ms (0.65 video frame)
Interleave, preload duration : 522 ms
Writing library : LAME3.97

Категория: Клипы | Добавил: MMMPP333 (04.04.2010)
Просмотров: 1067 | Теги: Скачать Клип ВАЛЕРИЯ - КАПЕЛЬКОЮ не, Клип ВАЛЕРИЯ - КАПЕЛЬКОЮ неба
.
Copyright MyCorp © 2016
Хостинг от uCoz