КЛИП Plazma - MYSTERY - Клипы - СКАЧАТЬ КЛИПЫ БЕСПЛАТНО - СКАЧАЙ МУЗЫКУ

Главная

Регистрация

Вход
Воскресенье, 04.12.2016, 21:21
Приветствую Вас Гость | RSS
.
Главная » Статьи » Клипы

КЛИП Plazma - MYSTERY
Информация о видео:

Format : Windows Media
File size : IS.QMiB
Duration : 4mn 07s
Overall bit rate mode : Constant
Overall bit rate : 664 Kbps
Maximum Overall bit rate : 720 Kbps
Encoded date : UTC 2009-04-07 18:53:45.968
Application : Windows Movie Maker 2.1.4026.0 Video #2
ID : 2
Format : VC-1
Format profile : MP@LL
Codec ID : WMV3
Codec ID/Info : Windows Media Video 9
Codec ID/Hint : WMV3
Description of the codec : Windows Media Video 9
Durati 4mn 07s
Bit rate mode : Constant
Bit rate : 646 Kbps
Width : 320 pixels
Height : 240 pixels
Display aspect ratio : 4:3
Frame rate : 25.000 fps
Resolution : 24 bits
Scan type : Progressive
Bits/(Pixel*Frame) : 0.337
Stream size : 17.5MiB(97%)
Language : Russian
Audio #1
ID : 1
Format : WMA2
Format profile : LI
Codec ID : 161
Codec ID/Info : Windows Media Audio 2
Description of the codec : Windows Media Audio 9.2 - 64 kbps, 44 kHz, stereo (A/V) 1-pass CBP
Duration : 4mn 07s
Bit rate mode : Constant
Bit rate : 64.0 Kbps
Channel(s) : 2 channels
Sampling rate : 44.1 KHz
Resolution : 16 bits
Stream size : 1.73MiB(10%)

Скачать бесплатно КЛИП Plazma - MYSTERY









Plazma - MYSTERY Текст песни

Mystery mystery...
It is your mystery
You gonna stop the game!

Someone is history...
Already history
And there’s no one to blame...
Plazma - MYSTERY Текст песни
Найден на сайте dzu.do.am

You gotta leave this town unturned
The bridge unburnt
The role unlearned
Afraid of just the morning sun
Your time to run
Your time to run!

Set the demons on fire
Do you best to win...
Just as long as you’ve got
The power within...

Категория: Клипы | Добавил: MMMPP333 (04.04.2010)
Просмотров: 1148 | Теги: КЛИП Plazma - MYSTERY (The Power Wi, СКАЧАТЬ КЛИП Plazma - MYSTERY (The, СКАЧАТЬ БЕСПЛАТНО КЛИП Plazma - MYS
.
Copyright MyCorp © 2016
Хостинг от uCoz