Клип justin bieber ft. jaden smith - never say never (Джастин Бибер) - Клипы - СКАЧАТЬ КЛИПЫ БЕСПЛАТНО - СКАЧАЙ МУЗЫКУ

Главная

Регистрация

Вход
Суббота, 03.12.2016, 03:20
Приветствую Вас Гость | RSS
.
Главная » Статьи » Клипы

Клип justin bieber ft. jaden smith - never say never (Джастин Бибер)
Format : Windows Media
File size : 5.18 MiB
Duration : 3mn 46s
Overall bit rate mode : Constant
Overall bit rate : 407 Kbps
Maximum Overall bit rate : 585 Kbps
Encoded date : UTC 2009-05-24 17:11:57.326
Application : Windows Movie Maker 2.1.4026.0 Video #2
ID : 2
Format : VC-1
Format profile : MP@LL
Codec ID : WMV3
Codec ID/Info : Windows Media Video 9
Codec ID/Hint : WMV3
Description of the codec : Windows Media Video 9
Duration :3Imn 46s
Bit rate mode : Constant
Bit rate : 512 Kbps
Width : 320 pixels
Height : 240 pixels
Display aspect ratio : 4:3
Frame rate : 25.000 fps
Resolution : 24 bits
Scan type : Progressive
Bits/(Pixel*Frame) : 0.267
Stream size : 6.52 MiB
Language : Russian Audio #1
ID : 1
Format : WMA2
Format profile : LI
Codec ID : 161
Codec ID/Info : Windows Media Audio 2
Description of the codec : Windows Media Audio 9.2 - 64 kbps, 44 kHz, sterec
Duration : 3mn 46s
Bit rate mode : Constant
Bit rate : 64.0 Kbps
Channel(s) : 2 channels
Sampling rate : 44.1 KHz
Resolution : 16 bits
Stream size : 835KiB(16%)

Клип justin bieber ft. jaden smith - never say never

Скачать бесплатно Клип justin bieber ft. jaden smith - never say never









Уважаемый пользователь Клип justin bieber ft. jaden smith - never say never (Джастин Бибер) мы предоставляем вам для ознакомления.
Не нужно использовать его для коммерции.
На нашем сайте вы также сможете скачать бесплатно mp3 justin bieber ft. jaden smith - never say never (Джастин Бибер). Скачивая файл, вы тем самым обязуетесь что не будете использовать его из корыстных побуждений.
Желаем вам приятных минут при прослушивании песни и просмотра видеоклипа.

Категория: Клипы | Добавил: MMMPP333 (03.06.2010)
Просмотров: 1835 | Теги: Скачать Клип justin bieber ft. jade, Клип justin bieber ft. jaden smith , Скачать бесплатно Клип justin biebe
.
Copyright MyCorp © 2016
Хостинг от uCoz