Клип Ирина Билык и Ольга Горбачева Я люблю его - Клипы - СКАЧАТЬ КЛИПЫ БЕСПЛАТНО - СКАЧАЙ МУЗЫКУ

Главная

Регистрация

Вход
Суббота, 03.12.2016, 03:20
Приветствую Вас Гость | RSS
.
Главная » Статьи » Клипы

Клип Ирина Билык и Ольга Горбачева Я люблю его
Здесь вы можете скачать Клип Ирина Билык и Ольга Горбачева Я люблю его

Format/Info : Audio Video Interleave
File size : 981 KiB
Duration : 40s 438ms
Overall bit rate : 199 Kbps
Movie name : 999.flv
Director : created.with.5U

Video #0
ID : 0
Format : MPEG-4 Visual
Format profile : 5imple(g>Ll
Format settings, EVOP : No
Format settings, QPel : No
Format settings, GMC : No warppomts
Format settings, Matrix : Default (H.263)
Codec ID : DX5Q
Codec ID/Hint : DivX 5
Duration : 20s Oms
Bit rate : 320 Kbps
Width : 384 pixels
Height : 288 pixels
Display aspect ratio : 4:3
Frame rate : 25.000 fps
Resolution : 24 bits
Colonmetry : 4:2:0
Scan type : Progressive
Bits/(Pixel*Frame) : 0.116
Stream size : 782 KiB (80%)
Writing li

Audio #1
ID : 1
Format : MPEG Audio
Format version : Version 2
Format profile : Layer 3
Codec ID : 55
Codec ID/Hint : MP3
Duration : 40s 438ms
Bit rate mode : Constant
Bit rate : 64.0 Kbps
Channel(s) : 2 channels
Sampling rate : 22.05 KHz
Resolution : 16 bits
Stream size : 158KiB(16%)
Alignment : Aligned on interleaves
Interleave, duration : 26 ms (0.65 video frame)
Writing library : LAME3.97

Скачать бесплатно Клип Ирина Билык и Ольга Горбачева Я люблю его








Категория: Клипы | Добавил: MMMPP333 (24.04.2010)
Просмотров: 520 | Теги: Скачать бесплатно Клип Ирина Билык , Скачать Клип Ирина Билык и Ольга Го, Клип Ирина Билык и Ольга Горбачева
.
Copyright MyCorp © 2016
Хостинг от uCoz