Клип Глюкоза Вот такая любовь (Glukoza) - Клипы - СКАЧАТЬ КЛИПЫ БЕСПЛАТНО - СКАЧАЙ МУЗЫКУ

Главная

Регистрация

Вход
Суббота, 03.12.2016, 03:22
Приветствую Вас Гость | RSS
.
Главная » Статьи » Клипы

Клип Глюкоза Вот такая любовь (Glukoza)
Информация о видео:

Format/Info : Audio Video Interleave
File size : 16.1 MiB
Duration : 2mn 38s
Overall bit rate : 508 Kbps
Director : created.Q8.bid.33
Writing application : Video #0
ID : 0
Format : MPEG-4 Visual
Format profile : 5imple(g>Ll
Format settings, EVOP : No
Format settings, QPel : No
Format settings, GMC : No warppomts
Format settings, Matrix : Default (H.263)
Codec ID : DX5Q
Codec ID/Hint : DivX 5
Duration : 2mn 38s
Bit rate : 907 Kbps
Width : 320 pixels
Height : 240 pixels
Display aspect ratio : 4:3
Frame rate : 25.000 fps
Resolution : 24 bits
Colonmetry : 4:2:0
Scan type : Progressive
Bits/(Pixel*Frame) : 0.472
Stream size : 14.4MiB(89%)
Writing library :Audio #1
ID : 1
Format : MPEG Audio
Format version : Version 2
Format profile : Layer 3
Codec ID : 55
Codec ID/Hint : MP3
Duration : 2mn 38s
Bit rate mode : Constant
Bit rate : 96.0 Kbps
Channel(s) : 2 channels
Sampling rate : 22.05 KHz
Resolution : 16 bits
Stream size : 1.52MiB(9%)
Alignment : Aligned on interleaves
Interleave, duration : 26 ms (0.65 video frame)
Interleave, preload duration : 522 ms
Writing library : LAME3.97

Скачать бесплатно Клип Глюкоза Вот такая любовь (Glukoza)








Слова Глюкоза Вот такая любовь (Glukoza) текст песни

Я смотрела в окно машины,
Всё красиво скрипели шины.
Чёрные диваны оставляли следы
От кокаина, это так наивнооо.

Руки на руле и педаль на скорости
Выжимаю до упора с чувством гордости.
Ничего не страшно, пролетаю мимооо
Такая картина, скорость.

Я хочу укрыться, слиться
И бегу от того, что мне снится.
Не слышно ты, мечты, мосты, любовь.
Порочно, сука, знать бы точно.

Я хотела любовь по-новому
Мягкому, чистому, скромному.
Ты смотришьКлип Глюкоза Вот такая любовь на меня по-черному
Связи оборваныыы…

Вот такая любовььь…
Вот такая любовььь…
Вот такаяяя...

Ты на меня смотрел, как на доступную
Слова Глюкоза Вот такая любовь текст песни
найден на сайте http://mmmpp333.do.am/
Лёгкую, глупую, мутную.
Но не так это было, как ты думал,
Подставляя к голове своей дулооо...

Жизнь, которую я не хотела
Заставляло лишь тело,
Ему надо, надо, оно ненасытно.
Мне хватило с избытком, я добита.

Знаю, что будет больно и долгооо
Ты мальчик с характером дога
Вдох, выдох, чёртова любовь,
Вдох, выдох, пузырьки кислорода в кровь.
Сука, ненавижу себя за это,
Таю как во рту сигарета
Это прёт по полной программе,
Подруги говорят, что успокоит оригами...

Вот такая любовььь…
Вот такая любовььь…
Вот такаяяя

Уважаемый пользователь Клип Глюкоза Вот такая любовь (Glukoza) мы предоставляем вам для ознакомления.
Не нужно использовать его для коммерции.
На нашем сайте вы также сможете скачать бесплатно mp3 Глюкоза Вот такая любовь (Glukoza). Скачивая файл, вы тем самым обязуетесь что не будете использовать его из корыстных побуждений.

Категория: Клипы | Добавил: MMMPP333 (24.04.2010)
Просмотров: 1295 | Теги: Клип Глюкоза Вот такая любовь, сКАЧАТЬ Клип Глюкоза Вот такая любо, Скачать бесплатно Клип Глюкоза Вот
.
Copyright MyCorp © 2016
Хостинг от uCoz