Клип dj smash Самолёт (ди джей смэш) - Клипы - СКАЧАТЬ КЛИПЫ БЕСПЛАТНО - СКАЧАЙ МУЗЫКУ

Главная

Регистрация

Вход
Суббота, 03.12.2016, 03:22
Приветствую Вас Гость | RSS
.
Главная » Статьи » Клипы

Клип dj smash Самолёт (ди джей смэш)
Информация о видео:

Format : Windows Media
File size : 25.6 MiE
Duration : 3mn 20s
Overall bit rate mode : Constant
Overall bit rate : 1 073 Kbps
Maximum Overall bit rate : 1 140 Kbps
Encoded date : UTC 2009-02-03 07:52:18.953
Application : Windows Movie Maker 2.1.4026.0 Video #2
ID : 2
Format : VC-1
Format profile : MP@ML
Codec ID : WMV3
Codec ID/Info : Windows Media Video 9
Codec ID/Hint : WMV3
Description of the codec : Windows Media Video 9
Duration : 3mn 20s
Bit rate mode : Constant
Bit rate : 1 000 Kbps
Width : 640 pixels
Height : 480 pixels
Display aspect ratio : 4:3
Frame rate : 25.000 fps
Resolution : 24 bits
Scan type : Progressive
Bits/(Pixel*Frame) : 0.130
Stream size : 23.8MiB(93%)
Language : Russian Audio #1
ID : 1
Format : WMA2
Format profile : LI
Codec ID : 161
Codec ID/Info : Windows Media Audio 2
Description of the codec : Windows Media Audio 9.1 - 128 kbps, 44 kHz, stereo
Duration : 3mn 20s
Bit rate mode : Constant
Bit rate : 128 Kbps
Channel(s) : 2 channels
Sampling rate : 44.1 KHz
Resolution : 16 bits
Stream size : 3.05MiB(12%)

Скачать бесплатно Клип dj smash Самолёт (ди джей смэш)








Уважаемый пользователь Клип dj smash Самолёт (ди джей смэш) мы предоставляем вам для ознакомления.
Не нужно использовать его для коммерции.
На нашем сайте вы также сможете скачать бесплатно mp3 dj smash Самолёт (ди джей смэш). Скачивая файл, вы тем самым обязуетесь что не будете использовать его из корыстных побуждений.

Слова dj smash Самолёт текст песни

Осыпается летняя заряяяя
Засыпает зеркальный небосвод
Я хотела тогда найти тебяяяя
Потерялась сама наоборот
И по белому снегу босиком
Уходила одна на целый год
Я хотела тогда найти тебяяяя,
А попала к ребятам в самолёт

Самолет,самолет,
Самолет,самолет,
Самолет,самолет,
Самолет,вертолет

Как свободная птица я лечууу
И широкая неба параллель
Намекая на то, что я хочуууу
Подпирает снаружи чью-то дверь
Облака как Клип dj smash Самолёт (ди джей смэш)парное молокоооо
И так чуждо лететь тебе назад
Оказалось что это так легкоооо,
Самолёт, я и несколько ребят

Самолет, самолет

Категория: Клипы | Добавил: MMMPP333 (27.04.2010)
Просмотров: 640 | Теги: Клип dj smash Самолёт (ди джей смэш, Скачать Клип dj smash Самолёт (ди д, Скачать бесплатно Клип dj smash Сам
.
Copyright MyCorp © 2016
Хостинг от uCoz