Клип Бумбокс - Летний дождь (Bumbox) - Клипы - СКАЧАТЬ КЛИПЫ БЕСПЛАТНО - СКАЧАЙ МУЗЫКУ

Главная

Регистрация

Вход
Суббота, 03.12.2016, 03:21
Приветствую Вас Гость | RSS
.
Главная » Статьи » Клипы

Клип Бумбокс - Летний дождь (Bumbox)
Информация о видео:

Format/Info : Audio Video Interleave
File size : 27.9 MiB
Duration : 3mn 21s
Overall bit rate : 467 Kbps

Video #0
ID : C
Format : MPEG-4 Visual
Format profile : 5imple(g>Ll
Format settings, EVOP : No
Format settings, QPel : No
Format settings, GMC : No warppomts
Format settings, Matrix : Default (H.263)
Codec ID : DX5Q
Codec ID/Hint : DivX 5
Duration : 3mn 21s
Bit rate : 826 Kbps
Width : 320 pixels
Height : 242 pixels
Display aspect ratio : 4:3
Frame rate : 25.000 fps
Resolution : 24 bits
Colonmetry : 4:2:0
Scan type : Progressive
Bits/(Pixel*Frame) : 0.427
Stream size : 24.7MiB(88%)
Writing library : SUPEP© Audio #1
ID : 1
Format : MPEG Audio
Format version : Version 2
Format profile : Layer 3
Codec ID : 55
Codec ID/Hint : MP3
Duration : 3mn 21s
Bit rate mode : Constant
Bit rate : 96.0 Kbps
Channel(s) : 2 channels
Sampling rate : 22.05 KHz
Resolution : 16 bits
Stream size : 2.87MiB(10%)
Alignment : Aligned on interleaves
Interleave, duration : 26 ms (0.65 video frame)
Interleave, preload duration : 522 ms
Writing library : LAME3.97

Клип Бумбокс - Летний дождь (Bumbox)

Скачать бесплатно Клип Бумбокс - Летний дождь (Bumbox)









Уважаемый пользователь Клип Бумбокс - Летний дождь (Bumbox) мы предоставляем вам для ознакомления.
Не нужно использовать его для коммерции.
На нашем сайте вы также сможете скачать бесплатно mp3 Бумбокс - Летний дождь (Bumbox). Скачивая файл, вы тем самым обязуетесь что не будете использовать его из корыстных побуждений.
Желаем вам приятных минут при прослушивании песни и просмотра видеоклипа.

Категория: Клипы | Добавил: MMMPP333 (14.06.2010)
Просмотров: 303 | Теги: Скачать Клип Бумбокс - Летний дождь, Клип Бумбокс - Летний дождь, Скачать бесплатно Клип Бумбокс - Ле
.
Copyright MyCorp © 2016
Хостинг от uCoz