Клип Benefit - Sex Sells - Клипы - СКАЧАТЬ КЛИПЫ БЕСПЛАТНО - СКАЧАЙ МУЗЫКУ

Главная

Регистрация

Вход
Суббота, 03.12.2016, 03:19
Приветствую Вас Гость | RSS
.
Главная » Статьи » Клипы

Клип Benefit - Sex Sells
Здесь вы сможете скачать Клип Benefit - Sex Sells


Скачать бесплатно клип Benefit - Sex Sells

Уважаемый пользователь, Видео на песню Benefit - Sex Sells предоставлено вам исключительно
в ознакомительных целях.Benefit - Sex Sells видео Скачивая этот клип вы тем самым подтверждаете, что не будите использовать
его в коммерческих целях.
На нашем сайте вы также можете скачать бесплатно mp3 Benefit - Sex Sells,
и ознакомиться с текстом песни.

Format/Info : Audio Video Interleave
File size : 2.62 MiB
Duration : 40s 594ms
Overall bit rate : 540 Kbps
Movie name : 531.flv
Director : created.with.5U

Video #0
ID : 0
Format : MPEG-4 Visual
Format profile : 5imple(g>Ll
Format settings, EVOP : No
Format settings, QPel : No
Format settings, GMC : No warppomts
Format settings, Matrix : Default (H.263)
Codec ID : DX50
Codec ID/Hint : DivX 5
Duration : 20s 200ms
Bit rate : 1 005 Kbps
Width : 384 pixels
Height : 288 pixels
Display aspect ratio : 4:3
Frame rate : 25.000 fps
Resolution : 24 bits
Colonmetry : 4:2:0
Scan type : Progressive
Bits/(Pixel*Frame) : 0.364
Stream size : 2.42MiB(93%)

Audio #1
ID : 1
Format : MPEG Audio
Format version : Version 2
Format profile : Layer 3
Codec ID : 55
Codec ID/Hint : MP3
Duration : 40s 594ms
Bit rate mode : Constant
Bit rate : 64.0 Kbps
Channel(s) : 2 channels
Sampling rate : 22.05 KHz
Resolution : 16 bits
Stream size : 159KiB(6%)
Alignment : Aligned on interleaves
Interleave, duration : 26 ms (0.65 video frame)
Writing library : LAME3.97

Категория: Клипы | Добавил: MMMPP333 (15.04.2010)
Просмотров: 562 | Теги: Скачать Клип Benefit - Sex Sells, Скачать бесплатно Клип Benefit - Se, Скачать видеоКлип Benefit - Sex Sel, Клип Benefit - Sex Sells
.
Copyright MyCorp © 2016
Хостинг от uCoz