Клип Баста - Калифорния (a.k.a. Ноггано feat. Тати) - Клипы - СКАЧАТЬ КЛИПЫ БЕСПЛАТНО - СКАЧАЙ МУЗЫКУ

Главная

Регистрация

Вход
Воскресенье, 04.12.2016, 21:15
Приветствую Вас Гость | RSS
.
Главная » Статьи » Клипы

Клип Баста - Калифорния (a.k.a. Ноггано feat. Тати)
Информация о видео:

Format : Windows Media
File size : 13.3 MiB
Duration : 3mn 48s
Overall bit rate mode : Constant
Overall bit rate : 662 Kbps
Maximum Overall bit rate : 1 140 Kbps
Encoded date : UTC 2009-03-12 15:32:53.000
Application : Windows Movie Maker 2.1.4026.0 Video #2
ID : 2
Format : VC-1
Format profile : MP@ML
Codec ID : WMV3
Codec ID/Info : Windows Media Video 9
Codec ID/Hint : WMV3
Description of the codec : Windows Media Video 9
Duration : 3mn 48s
Bit rate mode : Constant
Bit rate : 1 000 Kbps
Width : 640 pixels
Height : 480 pixels
Display aspect ratio : 4:3
Frame rate : 25.000 fps
Resolution : 24 bits
Scan type : Progressive
Bits/(Pixel*Frame) : 0.130
Stream size : 20.1 MiB
Language : Russian Audio #1
ID : 1
Format : WMA2
Format profile : LI
Codec ID : 161
Codec ID/Info : Windows Media Audio 2
Description of the codec : Windows Media Audio 9.2-128 kbps, 44 kHz, stereo (A/V) 1-pass CBP
Duration : 3mn 48s
Bit rate mode : Constant
Bit rate : 128 Kbps
Channel(s) : 2 channels
Sampling rate : 44.1 KHz
Resolution : 16 bits
Stream size : 2.58MiB(19%)

Скачать бесплатно клип Клип Баста - Калифорния (a.k.a. Ноггано feat. Тати)








Уважаемый пользователь Клип Баста - Калифорния (a.k.a. Ноггано feat. Тати) мы предоставляем вам для ознакомления.
Не нужно использовать его для коммерции.
На нашем сайте вы также сможете скачать бесплатно mp3 Баста - Калифорния (a.k.a. Ноггано feat. Тати) . Скачивая файл, вы тем самым обязуетесь что не будете использовать его из корыстных побуждений.
Желаем вам приятных минут при прослушивании песни и просмотра видеоклипа.

Категория: Клипы | Добавил: MMMPP333 (23.05.2010)
Просмотров: 322 | Теги: Скачать бесплатно Клип Баста - Кали, Клип Баста - Калифорния (a.k.a. Ног, Скачать Клип Баста - Калифорния (a.
.
Copyright MyCorp © 2016
Хостинг от uCoz