Клип Ани Лорак - С первого взгляда (Каролина) - Клипы - СКАЧАТЬ КЛИПЫ БЕСПЛАТНО - СКАЧАЙ МУЗЫКУ

Главная

Регистрация

Вход
Суббота, 03.12.2016, 03:16
Приветствую Вас Гость | RSS
.
Главная » Статьи » Клипы

Клип Ани Лорак - С первого взгляда (Каролина)
Информация о видео:

Format : Windows Media
File size : 11.4 MiB
Duration : 2mn 43s
Overall bit rate mode : Constant
Overall bit rate : 926 Kbps
Maximum Overall bit rate : 1 140 Kbps
Encoded date : UTC 2009-06-16 18:34:33.781
Application : Windows Movie Maker 2.1.4026.0 Video #2
ID : 2
Format : VC-1
Format profile : MP@ML
Codec ID : WMV3
Codec ID/Info : Windows Media Video 9
Codec ID/Hint : WMV3
Description of the codec : Windows Media Video 9
Duration : 2mn 43s
Bit rate mode : Constant
Bit rate : 1 000 Kbps
Width : 640 pixels
Height : 480 pixels
Display aspect ratio : 4:3
Frame rate : 25.000 fps
Resolution : 24 bits
Scan type : Progressive
Bits/(Pixel*Frame) : 0.130
Stream size : 12.3MiB
Language : Russian Audio #1
ID : 1
Format : WMA2
Format profile : LI
Codec ID : 161
Codec ID/Info : Windows Media Audio 2
Description of the codec : Windows Media Audio 9.2-128 kbps, 44 kHz, stereo (A/V) 1-pass CBP
Duration : 2mn 43s
Bit rate mode : Constant
Bit rate : 128 Kbps
Channel(s) : 2 channels
Sampling rate : 44.1 KHz
Resolution : 16 bits
Stream size : 1.57MiB(14%)


Скачать бесплатно клип Ани Лорак - С первого взгляда (Каролина)

Уважаемый пользователь, Видео на песню Ани Лорак - С первого взгляда (Каролина) предоставлено вам исключительно
в ознакомительныхС первого взгляда видео целях. Скачивая этот клип вы тем самым подтверждаете, что не будете использовать
его в коммерческих целях.
На нашем сайте вы также можете скачать бесплатно mp3 Ани Лорак - С первого взгляда (Каролина)

Категория: Клипы | Добавил: MMMPP333 (15.04.2010)
Просмотров: 534 | Теги: Скачать бесплатно Клип Ани Лорак - , Клип Ани Лорак - С первого взгляда, Скачать Клип Ани Лорак - С первого
.
Copyright MyCorp © 2016
Хостинг от uCoz