The Offspring - You're Gonna Go Far, Kid (Офспринг) - Музыка - Скачать музыку бесплатно - СКАЧАЙ МУЗЫКУ

Главная

Регистрация

Вход
Суббота, 03.12.2016, 03:16
Приветствую Вас Гость | RSS
.
Главная » Файлы » Музыка

The Offspring - You're Gonna Go Far, Kid (Офспринг)
[ Скачать с сервера (4.07Mb) ] 27.04.2010, 09:37
Любимые наши пользователи, чтобы скачать бесплатно песню The Offspring - You're Gonna Go Far, Kid (Офспринг), нужно всего лишь нажать на ссылку, которая расположена чуть выше на этой странице. Мы предоставляем вам возможность скачать музыку бесплатно исключительно в ознакомительных целях.
После прослушивания композиции The Offspring - You're Gonna Go Far, Kid (Офспринг)вы обязуетесь, что удалите эту песню и не будете использовать её в меркантильных соображениях.

ПОСМОТРЕТЬ КЛИП ПОСЛУШАТЬ The Offspring - You're Gonna Go Far, Kid

Скачать бесплатно клип The Offspring - You're Gonna Go Far, Kid
Текст песни The Offspring - You're Gonna Go Far, Kid (Офспринг)

Информация о видео:

File size : 4.85 MiB
Duration : 2mn Os
Overall bit rate : 337 Kbps
Director : created.wit
ID : 0
Format : MPEG-4 Visual
Format profile : 5imple(g>Ll
Format settings, EVOP : No
Format settings, QPel : No
Format settings, GMC : No warppomts
Format settings, Matrix : Default (H.263)
Codec ID : DX5Q
Codec ID/Hint : DivX 5
Duration : 59s 920ms
Bit rate : 569 Kbps
Width : 320 pixels
Height : 256 pixels
Display aspect ratio : 5:4
Frame rate : 25.000 fps
Resolution : 24 bits
Colonmetry : 4:2:0
Scan type : Progressive
Bits/(Pixel*Frame) : 0.278
Stream size : 4.07MiB(84%)

Audio #1
ID : 1
Format : MPEG Audio
Format version : Version 2
Format profile : Layer 3
Codec ID : 55
Codec ID/Hint : MP3
Duration : 2mn Os
Bit rate mode : Constant
Bit rate : 96.0 Kbps
Channel(s) : 2 channels
Sampling rate : 22.05 KHz
Resolution : 16 bits
Stream size : 707KiB(14%)
Alignment : Aligned on interleaves
Interleave, duration : 26 ms (0.65 video frame)
Interleave, preload duration : 522 ms
Writing library : LAME3.97

Категория: Музыка | Добавил: MMMPP333 | Теги: The Offspring - You're Gonna Go Far
Просмотров: 3163 | Загрузок: 2515
.
Copyright MyCorp © 2016
Хостинг от uCoz