Jedward feat vanilla ice under pressure (Под давлением) - Музыка - Скачать музыку бесплатно - СКАЧАЙ МУЗЫКУ

Главная

Регистрация

Вход
Воскресенье, 04.12.2016, 21:19
Приветствую Вас Гость | RSS
.
Главная » Файлы » Музыка

Jedward feat vanilla ice under pressure (Под давлением)
[ Скачать с сервера (6.75Mb) ] 27.04.2010, 09:03
Информация о видео:

Format/Info : Audio Video Interleave
File size : 11.5 MiB
Duration : 4mn 25$
Overall bit rate : 361 Kbps
Movie name : POd.flv
ID : 0
Format : MPEG-4 Visual
Format profile : 5imple(g>Ll
Format settings, EVOP : No
Format settings, QPel : No
Format settings, GMC : No warppomts
Format settings, Matrix : Default (H.263)
Codec ID : DX5Q
Codec ID/Hint : DivX 5
Duration : 2mn 12s
Bit rate : 646 Kbps
Width : 384 pixels
Height : 288 pixels
Display aspect ratio : 4:3
Frame rate : 25.000 fps
Resolution : 24 bits
Colonmetry : 4:2:0
Scan type : Progressive
Bits/(Pixel*Frame) : 0.233
Stream size : 10.2MiB(89%)
Writing library : SUPEP© Audio #1
ID : 1
Format : MPEG Audio
Format version : Version 2
Format profile : Layer 3
Codec ID : 55
Codec ID/Hint : MP3
Duration : 4mn 26s
Bit rate mode : Constant
Bit rate : 64.0 Kbps
Channel(s) : 2 channels
Sampling rate : 22.05 KHz
Resolution : 16 bits
Stream size : 1.02MiB(9%)
Alignment : Aligned on interleaves
Interleave, duration : 26 ms (0.65 video frame)
Writing library : LAME3.97

Любимые наши пользователи, чтобы скачать бесплатно песню Jedward feat vanilla ice under pressure (Под давлением), нужно всего лишь нажать на ссылку, которая расположена чуть выше на этой странице. Мы предоставляем вам возможность скачать музыку бесплатно исключительно в ознакомительных целях.
После прослушивания композиции Jedward feat vanilla ice under pressure (Под давлением) вы обязуетесь, что удалите эту песню и не будете использовать её в меркантильных соображениях.

ПОСМОТРЕТЬ КЛИП ПОСЛУШАТЬ Jedward feat vanilla ice under pressure (Под давлением)

Скачать бесплатно клип Jedward feat vanilla ice under pressure (Под давлением)
Текст песни Jedward feat vanilla ice under pressure

Jedward Биография

Настоящие имена - John Paul Henry Daniel Richard Grimes и Edward Peter Anthony Kevin Patrick Grimes.
Родились 16 октября 1991 года в Ирландии.
Воспитывались в семье компьютерного техника Джона и учительницы Susanna в городе Rathangan.
У них есть брат Kevin, который учится на юриста. Родители развелись, когда близнецам было по 10 лет. И вместе с мамой они переехали в Lucan - это пригород Дублина.Jedward Биография найдена на сайте http://mmmpp333.do.am/
Закончили школу, занимались атлетикой, но слава пришла к братьям, после появления сингла Jedward feat vanilla ice under pressure, который появился в январе 2010 года.

Категория: Музыка | Добавил: MMMPP333 | Теги: Jedward feat vanilla ice under pres
Просмотров: 3388 | Загрузок: 2550
.
Copyright MyCorp © 2016
Хостинг от uCoz